Eps6 Top of the Lake - Season 2 (2017) | Download | Top IMDb

+ bengalsfansedge.com »  :::: Dubbed Zone (Dubbed English in Hindi) » English Movies Dubbed in Hindi » High Resolution Movies
|- Star Wars The Last Jedi (2017) 1080p BluRay x264 Dual Audio [Hindi DD5.1 - English DD5.1] - Esubs ~

Star Wars The Last Jedi (2017) 1080p BluRay x264 Dual Audio [Hindi DD5.1 - English DD5.1] - Esubs ~

0 Members and 1 Guest are viewing this topic.

April 03, 2018, 01:50:39 AM
  • Global Moderator
  • Legend Member
  • *****
  • Topic Author
  • Thank You: 6806
  • Reputation: 1507
  • Activity:
    100%
  • Country: in
  • Posts: 4226
  • Topics: 3547
  • Join Date: Jan 2014
  • ıllıllı ѕмoĸιng ιѕ good ғor нealтн ıllıllı :)





Star Wars The Last Jedi (2017) 1080p BluRay x264  Dual Audio [Hindi DD5.1 - English DD5.1] - Esubs ~ Ranvijay

Thanks To Hammer Hammer For Hindi Audio

Quote
Format                                   : Matroska
Format version                           : Version 4 / Version 2
File size                                : 6.61 GiB
Duration                                 : 2 h 31 min
Overall bit rate                         : 6 234 kb/s
Movie name                               : Star Wars The Last Jedi (2017) 1080p BluRay x264  Dual Audio [Hindi DD5.1 - English DD5.1] - Esubs ~ Ranvijay

Video
Duration                                 : 2 h 31 min
Bit rate                                 : 5 178 kb/s
Width                                    : 1 920 pixels
Height                                   : 804 pixels
Display aspect ratio                     : 2.40:1
Frame rate mode                          : Constant
Frame rate                               : 23.976 (24000/1001) FPS
Color space                              : YUV
Chroma subsampling                       : 4:2:0
Bit depth                                : 8 bits
Scan type                                : Progressive
Bits/(Pixel*Frame)                       : 0.140
Stream size                              : 5.49 GiB (83%)
Title                                    : ~Ranvijay~
Language                                 : English
Default                                  : Yes
Forced                                   : No

Audio #1
ID                                       : 2
Format                                   : AC-3
Format/Info                              : Audio Coding 3
Codec ID                                 : A_AC3
Duration                                 : 2 h 31 min
Bit rate mode                            : Constant
Bit rate                                 : 640 kb/s
Channel(s)                               : 6 channels
Channel positions                        : Front: L C R, Side: L R, LFE
Sampling rate                            : 48.0 kHz
Frame rate                               : 31.250 FPS (1536 SPF)
Bit depth                                : 16 bits
Compression mode                         : Lossy
Stream size                              : 695 MiB (10%)
Title                                    : ~Ranvijay~
Language                                 : Hindi
Service kind                             : Complete Main
Default                                  : Yes
Forced                                   : No

Audio #2
ID                                       : 3
Format                                   : AC-3
Format/Info                              : Audio Coding 3
Codec ID                                 : A_AC3
Duration                                 : 2 h 31 min
Bit rate mode                            : Constant
Bit rate                                 : 384 kb/s
Channel(s)                               : 6 channels
Channel positions                        : Front: L C R, Side: L R, LFE
Sampling rate                            : 48.0 kHz
Frame rate                               : 31.250 FPS (1536 SPF)
Bit depth                                : 16 bits
Compression mode                         : Lossy
Stream size                              : 417 MiB (6%)
Title                                    : ~Ranvijay~
Language                                 : English
Service kind                             : Complete Main
Default                                  : No
Forced                                   : No

Text #1
ID                                       : 4
Format                                   : UTF-8
Codec ID                                 : S_TEXT/UTF8
Codec ID/Info                            : UTF-8 Plain Text
Duration                                 : 2 h 20 min
Bit rate                                 : 39 b/s
Count of elements                        : 1569
Stream size                              : 40.4 KiB (0%)
Title                                    : ~Ranvijay~
Language                                 : English
Default                                  : No
Forced                                   : No

Text #2
ID                                       : 5
Format                                   : UTF-8
Codec ID                                 : S_TEXT/UTF8
Codec ID/Info                            : UTF-8 Plain Text
Duration                                 : 2 h 23 min
Bit rate                                 : 45 b/s
Count of elements                        : 1897
Stream size                              : 47.9 KiB (0%)
Title                                    : ~Ranvijay~
Language                                 : English
Default                                  : No
Forced                                   : No

Text #3
ID                                       : 6
Format                                   : UTF-8
Codec ID                                 : S_TEXT/UTF8
Codec ID/Info                            : UTF-8 Plain Text
Duration                                 : 2 h 23 min
Bit rate                                 : 85 b/s
Count of elements                        : 1897
Stream size                              : 89.5 KiB (0%)
Title                                    : ~Ranvijay~
Language                                 : English
Default                                  : No
Forced                                   : No

Text #4
ID                                       : 7
Format                                   : PGS
Muxing mode                              : zlib
Codec ID                                 : S_HDMV/PGS
Codec ID/Info                            : Picture based subtitle format used on BDs/HD-DVDs
Duration                                 : 2 h 23 min
Bit rate                                 : 31.0 kb/s
Count of elements                        : 3778
Stream size                              : 31.8 MiB (0%)
Title                                    : ~Ranvijay~
Language                                 : English
Default                                  : Yes
Forced                                   : No

Text #5
ID                                       : 8
Format                                   : PGS
Muxing mode                              : zlib
Codec ID                                 : S_HDMV/PGS
Codec ID/Info                            : Picture based subtitle format used on BDs/HD-DVDs
Duration                                 : 2 h 24 min
Bit rate                                 : 70.6 kb/s
Count of elements                        : 4798
Stream size                              : 72.8 MiB (1%)
Title                                    : ~Ranvijay~
Language                                 : English
Default                                  : No
Forced                                   : No

Menu
00:00:00.000                             : :00:00:00.000
00:00:18.644                             : :00:00:18.644
00:01:45.731                             : :00:01:45.731
00:03:11.817                             : :00:03:11.817
00:07:43.296                             : :00:07:43.296
00:12:48.434                             : :00:12:48.434
00:13:44.574                             : :00:13:44.574
00:16:29.280                             : :00:16:29.280
00:19:59.281                             : :00:19:59.281
00:22:51.370                             : :00:22:51.370
00:26:04.980                             : :00:26:04.980
00:27:22.850                             : :00:27:22.850
00:31:24.758                             : :00:31:24.758
00:32:54.681                             : :00:32:54.681
00:35:27.667                             : :00:35:27.667
00:38:11.498                             : :00:38:11.498
00:41:53.428                             : :00:41:53.428
00:44:29.542                             : :00:44:29.542
00:46:51.475                             : :00:46:51.475
00:51:41.932                             : :00:51:41.932
00:53:50.060                             : :00:53:50.060
00:55:41.505                             : :00:55:41.505
00:57:39.581                             : :00:57:39.581
00:59:16.636                             : :00:59:16.636
01:02:05.847                             : :01:02:05.847
01:03:07.701                             : :01:03:07.701
01:05:41.729                             : :01:05:41.729
01:07:03.478                             : :01:07:03.478
01:10:25.720                             : :01:10:25.721
01:13:30.323                             : :01:13:30.323
01:17:43.450                             : :01:17:43.450
01:20:53.057                             : :01:20:53.057
01:24:17.970                             : :01:24:17.970
01:26:23.220                             : :01:26:23.220
01:27:59.524                             : :01:27:59.524
01:30:49.361                             : :01:30:49.361
01:32:54.569                             : :01:32:54.569
01:35:53.706                             : :01:35:53.706
01:37:10.616                             : :01:37:10.616
01:39:12.864                             : :01:39:12.864
01:42:07.663                             : :01:42:07.663
01:45:03.714                             : :01:45:03.714
01:49:35.694                             : :01:49:35.694
01:52:20.609                             : :01:52:20.609
01:56:04.749                             : :01:56:04.749
01:58:52.083                             : :01:58:52.083
02:03:11.134                             : :02:03:11.134
02:06:39.759                             : :02:06:39.759
02:11:43.604                             : :02:11:43.604
02:15:12.104                             : :02:15:12.104
02:20:16.700                             : :02:20:16.700
02:23:39.694                             : :02:23:39.694
















:download:

Quote

File Leeched & Uploaded From




Don't walk as you are king, walk as you don't care who the king is....!!
Never argue with an idiot. They drag you down to their level and then beat you with experience?

Share this topic on FacebookShare this topic on GoogleShare this topic on MySpaceShare this topic on TwitterShare this topic on Yahoo

« Last Edit: April 03, 2018, 01:51:07 AM by Rάήνίјάч1234 »



Don't walk as you are king, walk as you don't care who the king is....!!

Thanks given by:


May 16, 2018, 01:57:54 AM
Reply #1
  • Begginer
  • **
  • Thank You: 0
  • Reputation: 0
  • Activity:
    18.2%
  • Country: in
  • Posts: 89
  • Topics: 0
  • Join Date: Apr 2016
  • ShareSpark Member

May 17, 2018, 05:30:55 AM
Reply #2
  • Add +rep
  • Hero Member
  • ***
  • Thank You: 27
  • Reputation: 12
  • Activity:
    1.2%
  • Country: in
  • Posts: 358
  • Topics: 80
  • Join Date: May 2013
  • ℓɨ˅€ ţ๏ďą¥, ƒ๏я ţ๏ʍ๏яя๏ώ ɨţ ώɨℓℓ ąℓℓ β€ hɨ$ţ๏я¥.
 :rep: thanks for google drive link bro u r the best uploader of sharespark not telling u for the access but i am genuinely appreciating u r work
Can u plz accept my request cause i cant download the file....  :thank:
:django:Add +Rep and Thanks if u like my post or else i will Shoot u :django:

Tags:
 

Related Topics




Back to top