Inside Superrace 2017 | Disclaimer | Watch movie

+ bengalsfansedge.com »  :::: Hollywood Zone » Hollywood Movies (Original Rips)
|- Black.Panther.2018.720p.BluRay.H264.AAC-RARBG [1.63 GB]

Black.Panther.2018.720p.BluRay.H264.AAC-RARBG [1.63 GB]

Dhruv1397 and 1 Guest are viewing this topic.

May 02, 2018, 07:27:15 AM
  • *****************
  • Head Admin
  • Legend Member
  • *****
  • Topic Author
  • Thank You: 6239
  • Reputation: 2734
  • Activity:
    100%
  • Country: in
  • Posts: 18259
  • Topics: 10793
  • Join Date: Mar 2012
  • The Time Is Now......


Video
ID                                       : 1
Format                                   : AVC
Format/Info                              : Advanced Video Codec
Format profile                           : [email protected]
Format settings                          : CABAC / 4 Ref Frames
Format settings, CABAC                   : Yes
Format settings, ReFrames                : 4 frames
Codec ID                                 : avc1
Codec ID/Info                            : Advanced Video Coding
Duration                                 : 2 h 14 min
Bit rate                                 : 1 500 kb/s
Width                                    : 1 280 pixels
Height                                   : 536 pixels
Display aspect ratio                     : 2.40:1
Frame rate mode                          : Constant
Frame rate                               : 23.976 (23976/1000) FPS
Color space                              : YUV
Chroma subsampling                       : 4:2:0
Bit depth                                : 8 bits
Scan type                                : Progressive
Bits/(Pixel*Frame)                       : 0.091
Stream size                              : 1.41 GiB (87%)


Audio
ID                                       : 2
Format                                   : AAC
Format/Info                              : Advanced Audio Codec
Format profile                           : LC
Codec ID                                 : mp4a-40-2
Duration                                 : 2 h 14 min
Bit rate mode                            : Constant
Bit rate                                 : 224 kb/s
Channel(s)                               : 2 channels
Channel(s)_Original                      : 6 channels
Channel positions                        : Front: L C R, Side: L R, LFE
Sampling rate                            : 48.0 kHz
Frame rate                               : 46.875 FPS (1024 SPF)
Compression mode                         : Lossy
Stream size                              : 216 MiB (13%)
Language                                 : English
Default                                  : Yes
Alternate group                          : 1
Encoded date                             : UTC 2018-05-01 22:48:05
Tagged date                              : UTC 2018-05-01 22:48:05





























Share this topic on FacebookShare this topic on GoogleShare this topic on MySpaceShare this topic on TwitterShare this topic on Yahoo

« Last Edit: May 02, 2018, 07:28:04 AM by -Ð@Rk.ÐèVi£- »


Thanks given by:


May 17, 2018, 01:23:54 AM
Reply #1
  • Elite Forces
  • ****
  • Thank You: 207
  • Reputation: 87
  • Activity:
    27%
  • Country: sa
  • Posts: 1103
  • Topics: 109
  • Join Date: Jan 2017
  • ShareSpark Member

Tags:
 

Related Topics




Back to top